<?xml version="1.0" standalone="no"?>
<!DOCTYPE svg PUBLIC "-//W3C//DTD SVG 1.1//EN" "http://www.w3.org/Graphics/SVG/1.1/DTD/svg11.dtd">
<svg xmlns="http://www.w3.org/2000/svg">
<defs >
<font id="Oswald" horiz-adv-x="797" ><font-face
    font-family="Oswald"
    units-per-em="2048"
    panose-1="2 0 5 3 0 0 0 0 0 0"
    ascent="2444"
    descent="-591"
    alphabetic="0" />
<glyph unicode=" " horiz-adv-x="416" />
<glyph unicode="!" horiz-adv-x="375" d="M128 384L64 1792H320L274 384H128ZM64 0V256H320V0H64Z" />
<glyph unicode="&quot;" horiz-adv-x="704" d="M449 1328L385 1792H641L577 1328H449ZM126 1328L62 1792H318L254 1328H126Z" />
<glyph unicode="#" horiz-adv-x="1088" d="M437 832H630L657 1024H465L437 832ZM64 0L154 640H64V832H181L209 1024H64V1216H236L318 1792H574L492 1216H684L766 1792H1022L940 1216H1024V1024H913L885 832H1024V640H858L768 0H512L602 640H410L320 0H64Z" />
<glyph unicode="$" horiz-adv-x="1216" d="M704 198Q832 227 832 384Q832 462 804 519T724 628L704 648V198ZM576 1101V1600Q484 1600 434 1548T384 1405Q384 1253 512 1152L576 1101ZM576 -128V-15Q368 0 255 142T128 512L384 576Q394 283 555 208L576 200V755L320
960Q232 1031 180 1136T127 1378Q127 1576 250 1693T576 1810V1920H704V1799L745 1790Q1061 1704 1088 1344L832 1280Q823 1468 724 1549L704 1564V998L832 896Q945 808 1016 684T1088 401Q1088 220 984 112T704 -15V-128H576Z" />
<glyph unicode="%" horiz-adv-x="1999" d="M1649 0T1554 0T1388 38T1273 145T1209 301T1188 492Q1188 598 1208 683T1271 835T1385 938T1554 975T1723 939T1837 836T1900 684T1921 492Q1921 387 1900 300T1836 145T1721 38ZM1554 195Q1688 195 1688 492Q1688 780
1554 780Q1421 780 1421 492Q1421 440 1426 395T1444 301T1485 224T1554 195ZM751 0L1034 1518H1253L971 0H751ZM539 541T444 541T278 579T163 686T99 841T78 1032Q78 1138 98 1224T160 1376T275 1479T444 1516Q522 1516 584 1492T688 1424T758 1320T798 1188T811
1032Q811 928 790 841T725 685T611 579ZM444 735Q578 735 578 1032Q578 1321 444 1321Q311 1321 311 1032Q311 980 316 935T334 841T375 764T444 735Z" />
<glyph unicode="&amp;" horiz-adv-x="1344" d="M545 1024Q609 1104 656 1229T704 1472Q704 1530 669 1565T576 1600Q511 1600 480 1544T448 1408Q448 1343 465 1267T499 1143T545 1024ZM512 192Q634 192 736 320L613 503Q600 524 569 564T514 639T481 704Q437
646 411 561T384 384Q384 300 414 246T512 192ZM512 -18Q334 -18 231 92T128 384Q128 670 384 896Q370 925 326 1005T259 1134T214 1260T192 1408Q192 1588 296 1699T576 1810Q741 1810 850 1719T960 1472Q960 1402 938 1330T886 1202T807 1084T724 983T640 896L896
512Q914 552 927 612T944 705T960 832H1216Q1216 710 1169 579T1057 350Q1132 256 1216 256V-18Q1191 -18 1169 -16T1123 -5T1084 9T1046 30T1013 51T980 78T952 103T922 131T896 157Q833 77 736 30T512 -18Z" />
<glyph unicode="&apos;" horiz-adv-x="384" d="M126 1328L62 1792H318L254 1328H126Z" />
<glyph unicode="(" horiz-adv-x="640" d="M576 -64Q496 -64 431 -43T321 24T242 120T188 249T154 393T136 558T130 724T128 896Q128 1018 129 1092T140 1280T166 1464T215 1617T295 1746T413 1824T576 1856V1664Q526 1664 490 1633T433 1553T400 1432T385 1293T381
1143Q381 1095 382 1012T384 896T383 779T381 645Q381 561 384 496T400 358T432 238T489 159T576 128V-64Z" />
<glyph unicode=")" horiz-adv-x="640" d="M64 -64V128Q114 128 150 159T207 239T240 360T255 499T259 649Q259 697 258 780T256 896T257 1013T259 1147Q259 1231 256 1296T240 1434T208 1554T151 1633T64 1664V1856Q144 1856 209 1835T319 1768T398 1672T452 1543T486
1399T504 1234T510 1068T512 896Q512 774 511 700T500 512T474 328T425 175T345 46T227 -32T64 -64Z" />
<glyph unicode="*" horiz-adv-x="896" d="M343 904L191 994L363 1237L106 1335L167 1496L412 1364L384 1664H576L547 1364L793 1496L854 1335L597 1236L769 994L617 904L480 1181L343 904Z" />
<glyph unicode="+" horiz-adv-x="704" d="M256 384V576H64V768H256V960H448V768H640V576H448V384H256Z" />
<glyph unicode="," horiz-adv-x="408" d="M140 -256L76 -128Q145 -128 174 -98T204 0H76V256H332Q332 112 329 14Q327 -40 323 -77T307 -150T275 -208T222 -243T140 -256Z" />
<glyph unicode="-" horiz-adv-x="384" d="M0 448V640H384V448H0Z" />
<glyph unicode="." horiz-adv-x="384" d="M64 0V256H320V0H64Z" />
<glyph unicode="/" horiz-adv-x="832" d="M0 0L575 1792H832L256 0H0Z" />
<glyph unicode="0" horiz-adv-x="1088" d="M544 -18Q398 -18 296 51T145 237T96 512V1280Q96 1527 208 1668T544 1810Q767 1810 879 1668T992 1280V512Q992 271 878 127T544 -18ZM544 192Q736 192 736 512V1280Q736 1334 732 1376T716 1462T683 1535T627 1582T544
1600T461 1582T406 1535T373 1463T356 1377T352 1280V512Q352 449 360 396T389 295T449 220T544 192Z" />
<glyph unicode="1" horiz-adv-x="640" d="M256 0V1408H64V1600Q257 1669 320 1792H512V0H256Z" />
<glyph unicode="2" horiz-adv-x="1020" d="M71 0V256L520 896Q528 907 555 944T591 995T622 1043T652 1096T675 1149T696 1209T707 1271T712 1344Q712 1451 663 1525T520 1600Q465 1600 426 1573T367 1498T337 1397T328 1280V1216H72V1280Q72 1532 180 1671T520
1810Q738 1810 853 1688T968 1344Q968 1261 954 1189T908 1051T850 942T776 832L328 256H968V0H71Z" />
<glyph unicode="3" horiz-adv-x="1027" d="M526 -18Q308 -18 193 104T78 448V512H334Q334 452 337 410T352 323T384 253T440 209T526 192T612 209T668 252T699 323T714 409T718 512Q718 666 659 749T462 832V1088Q602 1088 660 1145T718 1344Q718 1471 676 1535T526
1600Q476 1600 440 1583T384 1540T353 1469T338 1383T334 1280H78V1344Q78 1564 193 1687T526 1810Q744 1810 859 1688T974 1344Q974 1192 906 1095T718 960Q843 918 908 803T974 512Q974 260 866 121T526 -18Z" />
<glyph unicode="4" horiz-adv-x="1087" d="M339 702H595V1472L339 702ZM595 0V460H83V745L531 1793H851V702H1049V460H851V0H595Z" />
<glyph unicode="5" horiz-adv-x="1050" d="M535 -18Q296 -18 194 116T92 512H348V472Q348 421 351 384T365 307T394 243T445 202T521 186Q556 186 584 194T633 215T670 252T696 296T714 353T724 413T730 482T732 551T732 625Q732 647 732 658Q732 701 731 731T726
797T713 857T691 905T657 943T608 965T541 974Q473 974 423 930T350 826H132V1792H924V1536H364L348 1102Q456 1166 604 1166Q691 1166 757 1140T867 1067T937 953T976 809T988 640Q988 525 976 432T933 253T852 109T722 17T535 -18Z" />
<glyph unicode="6" horiz-adv-x="1083" d="M505 192T560 192T654 219T713 294T743 395T752 512Q752 550 752 569T751 625T747 680T740 730T728 776T711 815T686 850T654 874T612 891T560 896Q436 896 368 768V512Q368 448 377 395T406 294T466 219ZM560 -18Q468
-18 393 13T267 98T180 227T128 390T112 576V1152Q112 1262 125 1355T170 1534T252 1680T380 1775T560 1810Q776 1810 892 1688T1008 1344H752Q752 1472 711 1536T560 1600Q368 1600 368 1216V960Q442 1088 624 1088Q732 1088 808 1051T927 942T989 781T1008 576Q1008
450 983 346T906 158T766 29T560 -18Z" />
<glyph unicode="7" horiz-adv-x="826" d="M190 0L518 1579H45V1792H762V1669L436 0H190Z" />
<glyph unicode="8" horiz-adv-x="1024" d="M513 1063Q563 1063 596 1086T646 1152T667 1240T673 1344Q673 1600 513 1600Q351 1600 351 1344Q351 1284 357 1240T379 1152T428 1086T513 1063ZM463 192T513 192T599 210T655 255T686 326T701 412T704 511Q704 575
696 625T668 722T609 793T513 818T417 793T357 723T328 627T320 511Q320 453 323 412T338 326T370 254T427 210ZM513 -18Q277 -18 171 118T64 511Q64 678 110 779T258 946Q172 1011 131 1106T90 1344Q90 1566 196 1688T513 1810Q723 1810 828 1688T934 1344Q934
1200 894 1106T767 946Q868 880 914 778T960 511Q960 255 854 119T513 -18Z" />
<glyph unicode="9" horiz-adv-x="1083" d="M540 896Q662 896 732 1024V1280Q732 1344 723 1397T694 1498T634 1573T540 1600T446 1573T387 1498T357 1397T348 1280Q348 1242 348 1223T349 1167T353 1112T360 1062T372 1016T389 977T414 942T446 918T488 901T540
896ZM540 -18Q324 -18 208 104T92 448H348Q348 320 389 256T540 192Q732 192 732 576V832Q656 704 476 704Q368 704 292 741T173 850T111 1011T92 1216Q92 1342 117 1446T194 1634T334 1763T540 1810Q632 1810 707 1779T833 1694T920 1565T972 1402T988 1216V640Q988
530 975 437T930 258T848 112T720 17T540 -18Z" />
<glyph unicode=":" horiz-adv-x="439" d="M128 832V1088H384V832H128ZM128 256V512H384V256H128Z" />
<glyph unicode=";" horiz-adv-x="384" d="M64 832V1088H320V832H64ZM128 0L64 128Q133 128 162 158T192 256H64V512H320Q320 368 317 270Q315 216 311 179T295 106T263 48T210 13T128 0Z" />
<glyph unicode="&lt;" horiz-adv-x="832" d="M704 64L64 512V768L704 1216V960L256 641L704 320V64Z" />
<glyph unicode="=" horiz-adv-x="704" d="M64 576V768H640V576H64ZM64 255V447H640V255H64Z" />
<glyph unicode="&gt;" horiz-adv-x="832" d="M128 64V320L576 641L128 960V1216L768 768V512L128 64Z" />
<glyph unicode="?" horiz-adv-x="1152" d="M384 0V256H640V0H384ZM384 384V704Q447 742 493 774T595 855T685 955T744 1073T768 1216Q768 1408 576 1408Q468 1408 426 1344T384 1152H128V1216Q128 1435 243 1549T576 1664Q795 1664 910 1549T1025 1216Q1025 1004
924 866T640 640V384H384Z" />
<glyph unicode="@" horiz-adv-x="1782" d="M884 502Q953 502 958 542V945Q951 996 904 996Q884 996 867 992T837 978T814 958T797 929T784 898T776 860T772 821T769 778T768 736T768 693Q768 502 884 502ZM958 -128Q524 -128 326 93T128 768Q128 1140 331 1356T896
1572Q1267 1572 1460 1361T1654 768Q1654 667 1632 582T1566 431T1451 329T1286 292Q1190 292 1119 326T1011 420Q954 292 840 292Q734 292 659 348T548 493T512 693Q512 770 521 839T552 975T609 1090T696 1167T816 1197Q882 1197 918 1161T958 1061V1188H1214V620Q1214
582 1217 560T1236 520T1282 502Q1398 502 1398 768Q1398 916 1372 1025T1288 1216T1132 1339T896 1380Q767 1380 668 1335T508 1208T415 1015T384 768Q384 596 413 471T507 252T684 111T958 64Q1083 64 1254 119L1348 -77Q1125 -128 958 -128Z" />
<glyph unicode="A" horiz-adv-x="1056" d="M400 640H656L528 1408L400 640ZM16 0L400 1792H656L1040 0H784L688 448H368L272 0H16Z" />
<glyph unicode="B" horiz-adv-x="1146" d="M384 1024H512Q832 1024 832 1344Q832 1397 819 1437T788 1505T734 1550T667 1579T582 1593T489 1599T384 1600V1024ZM384 192H512Q678 192 755 268T832 512T755 755T512 832H384V192ZM128 0V1792H512Q636 1792 734 1766T905
1687T1018 1547T1058 1344Q1058 1176 987 1089T768 960Q928 907 1008 805T1088 512Q1088 275 951 138T576 0H128Z" />
<glyph unicode="C" horiz-adv-x="1107" d="M588 -18Q475 -18 389 14T248 102T159 243T110 424T96 641V1152Q96 1273 110 1369T158 1549T248 1690T389 1778T588 1810Q713 1810 804 1773T949 1664T1031 1497T1064 1275Q1065 1256 1065 1216H809V1273Q808 1326 805
1363T794 1441T771 1507T732 1556T672 1589T588 1600Q526 1600 482 1580T412 1529T374 1444T356 1341T352 1216V576Q352 512 357 460T379 357T420 270T488 214T588 192T686 214T750 270T787 357T805 460T809 576V640H1065V576Q1065 437 1041 332T962 147T814 24T588
-18Z" />
<glyph unicode="D" horiz-adv-x="1133" d="M128 0V1792H525Q806 1792 921 1677T1037 1280V576Q1037 281 920 141T523 0H128ZM384 192H525Q588 192 633 203T706 245T750 303T772 389T780 484T781 601Q781 627 781 640V1216Q781 1265 781 1294T778 1362T770 1425T756
1476T734 1521T701 1554T656 1580T596 1594T520 1600H384V192Z" />
<glyph unicode="E" horiz-adv-x="861" d="M128 0V1792H832V1600H384V1024H704V832H384V192H832V0H128Z" />
<glyph unicode="F" horiz-adv-x="821" d="M128 0V1792H832V1600H384V1024H704V832H384V0H128Z" />
<glyph unicode="G" horiz-adv-x="1199" d="M608 -18Q485 -18 395 17T247 112T156 265T109 461T96 698V1152Q96 1810 618 1810Q743 1810 835 1773T984 1663T1070 1495T1104 1271Q1105 1253 1105 1216H849V1270Q848 1333 843 1378T823 1468T783 1539T717 1583T618
1600Q540 1600 487 1572T405 1489T364 1369T352 1216V640Q352 576 356 525T369 420T397 327T443 257T512 209T608 192Q672 192 719 217T793 281T837 382T858 503T864 640V704H608V894H1120V0H928L864 192Q789 -18 608 -18Z" />
<glyph unicode="H" horiz-adv-x="1216" d="M128 0V1792H384V1024H832V1792H1088V0H832V832H384V0H128Z" />
<glyph unicode="I" horiz-adv-x="542" d="M140 0V1792H396V0H140Z" />
<glyph unicode="J" horiz-adv-x="640" d="M0 0V192Q83 192 129 201T206 239T246 316T256 448V1792H512V448Q512 326 496 247T438 109T320 26T128 0H0Z" />
<glyph unicode="K" horiz-adv-x="1118" d="M128 0V1792H384V1024L768 1792H1088L703 1088L1152 0H832L512 832L384 576V0H128Z" />
<glyph unicode="L" horiz-adv-x="823" d="M128 0V1792H384V192H832V0H128Z" />
<glyph unicode="M" horiz-adv-x="1472" d="M128 0V1792H482L736 420L990 1792H1344V0H1088V1414L832 0H640L384 1414V0H128Z" />
<glyph unicode="N" horiz-adv-x="1152" d="M128 0V1792H320L768 684V1792H1024V0H842L384 1192V0H128Z" />
<glyph unicode="O" horiz-adv-x="1180" d="M590 -18Q455 -18 359 23T205 143T122 328T96 576V1226Q96 1367 122 1472T205 1654T358 1771T590 1810Q852 1810 968 1660T1084 1226V576Q1084 437 1058 331T974 145T821 24T590 -18ZM455 192T590 192T776 273T828 512V1290Q828
1446 777 1523T590 1600T403 1523T352 1290V512Q352 354 403 273Z" />
<glyph unicode="P" horiz-adv-x="1041" d="M384 1024H448Q535 1024 590 1034T688 1071T749 1150T768 1280Q768 1376 754 1435T703 1533T606 1585T448 1600H384V1024ZM128 0V1792H576Q1024 1792 1024 1280Q1024 1061 909 947T576 832H384V0H128Z" />
<glyph unicode="Q" horiz-adv-x="1180" d="M455 192T590 192T776 273T828 512V1290Q828 1446 777 1523T590 1600T403 1523T352 1290V512Q352 354 403 273ZM1063 -256Q954 -256 847 -180T690 -11Q647 -18 590 -18Q455 -18 359 23T205 143T122 328T96 576V1226Q96
1367 122 1472T205 1654T358 1771T590 1810Q852 1810 968 1660T1084 1226V576Q1084 180 869 49Q898 7 956 -19T1063 -46V-256Z" />
<glyph unicode="R" horiz-adv-x="1108" d="M384 1024H448Q608 1024 688 1091T768 1312T688 1532T448 1600H384V1024ZM128 0V1792H448Q734 1792 879 1681T1024 1312Q1024 1152 967 1044T800 896L1088 0H834L576 832H384V0H128Z" />
<glyph unicode="S" horiz-adv-x="1102" d="M595 -18Q353 -18 226 124T83 512L339 576Q358 192 595 192Q787 192 787 384Q787 441 772 489T724 578T666 643T595 704L275 960Q187 1029 135 1135T82 1378Q82 1576 205 1693T531 1810Q749 1810 877 1704T1036 1402Q1039
1381 1043 1344L787 1280Q786 1297 782 1331Q765 1453 706 1526T531 1600Q439 1600 389 1549T339 1405Q339 1254 467 1152L787 896Q1043 689 1043 401Q1043 204 922 93T595 -18Z" />
<glyph unicode="T" horiz-adv-x="894" d="M319 0V1564H-1V1792H895V1564H575V0H319Z" />
<glyph unicode="U" horiz-adv-x="1252" d="M743 -19T626 -19T420 12T274 98T180 238T129 419T114 640V1792H370V640Q370 557 373 501T392 382T433 280T508 217T626 192T743 217T818 280T860 381T878 501T882 640V1792H1138V640Q1138 517 1123 420T1072 238T979
99T832 12Z" />
<glyph unicode="V" horiz-adv-x="1048" d="M396 0L12 1792H268L457 832L523 384L591 832L780 1792H1036L652 0H396Z" />
<glyph unicode="W" horiz-adv-x="1558" d="M331 0L11 1792H267L395 960L460 448L523 960L651 1792H907L1035 960L1098 448L1163 960L1291 1792H1547L1227 0H971L843 832L779 1344L715 832L587 0H331Z" />
<glyph unicode="X" horiz-adv-x="1070" d="M25 0L343 929L23 1792H279L535 1088L791 1792H1047L727 933L1043 0H789L535 768L281 0H25Z" />
<glyph unicode="Y" horiz-adv-x="1018" d="M381 0V576L-3 1792H253L509 896L765 1792H1021L637 576V0H381Z" />
<glyph unicode="Z" horiz-adv-x="951" d="M62 0V192L638 1600H126V1792H894V1600L318 192H894V0H62Z" />
<glyph unicode="[" horiz-adv-x="768" d="M128 -64V1856H640V1728H384V64H640V-64H128Z" />
<glyph unicode="\" horiz-adv-x="576" d="M256 0L64 1792H320L512 0H256Z" />
<glyph unicode="]" horiz-adv-x="768" d="M128 -64V64H384V1728H128V1856H640V-64H128Z" />
<glyph unicode="^" horiz-adv-x="896" d="M64 896L320 1536H576L832 896H576L447 1344L320 896H64Z" />
<glyph unicode="_" horiz-adv-x="768" d="M0 0V192H768V0H0Z" />
<glyph unicode="`" horiz-adv-x="640" d="M384 1408L128 1792H384L512 1408H384Z" />
<glyph unicode="a" horiz-adv-x="955" d="M468 192Q495 192 520 208T559 239T591 279Q594 284 596 286V640Q580 629 543 606T484 569T431 529T383 480T353 422T340 351Q340 192 468 192ZM340 -18Q233 -18 159 74T84 283Q84 376 115 452T182 573T299 667T423 734T569
793Q587 800 596 804V896Q596 993 569 1046T468 1100Q402 1100 374 1055T341 929Q340 918 340 896H84Q86 1080 187 1189T468 1298Q647 1298 749 1188T852 896V320Q852 120 885 0H630L596 192Q576 152 564 130T527 76T479 26T419 -5T340 -18Z" />
<glyph unicode="b" horiz-adv-x="1042" d="M565 192Q606 192 633 222T673 307T690 418T695 546Q695 600 695 689T694 823T692 901T682 972T661 1033T623 1072T565 1088Q459 1088 373 1037V232Q472 192 565 192ZM629 -18Q551 -18 491 19T373 116V0H117V1791H373V1153Q409
1191 427 1208T479 1251T551 1287T633 1298Q698 1298 749 1275T833 1218T889 1123T923 1011T941 876T948 739T949 594V577Q949 493 941 415T910 256T853 116T761 20T629 -18Z" />
<glyph unicode="c" horiz-adv-x="863" d="M434 -18Q341 -18 273 13T163 94T97 221T63 376T51 557Q48 640 51 724Q53 826 62 904T97 1059T163 1186T272 1267T434 1298Q636 1298 724 1189T818 866V832H562V868Q561 916 556 952T538 1024T499 1079T434 1099T370 1077T331
1012T311 926T304 823Q300 699 304 449Q306 394 312 353T331 273T371 213T434 192Q468 192 492 205T530 237T550 288T560 347T562 417V448H818V415Q815 314 793 237T727 101T609 13T434 -18Z" />
<glyph unicode="d" horiz-adv-x="1050" d="M478 192Q571 192 670 232V1037Q584 1088 478 1088Q440 1088 414 1070T375 1016T356 943T349 854Q345 630 349 499Q350 435 356 385T375 289T415 217T478 192ZM414 -18Q329 -18 266 30T168 160T116 330T95 521Q93 568
95 751Q97 817 101 870T114 982T138 1084T177 1170T233 1239T310 1282T410 1298Q453 1298 490 1287T562 1251T616 1207T670 1153V1791H926V0H670V116Q612 56 552 19T414 -18Z" />
<glyph unicode="e" horiz-adv-x="933" d="M476 -18Q383 -18 315 14T206 97T140 229T106 390T94 578Q91 662 94 746Q97 846 107 923T144 1074T211 1194T320 1269T478 1298Q560 1298 622 1277T726 1212T795 1115T837 987T856 838T862 670V640H350V576Q350 563 350
535Q348 498 349 459T353 381T364 309T386 248T422 207T478 192Q518 192 544 207T582 254T600 316T606 394V448H860V397Q851 192 759 87T476 -18ZM350 768H604V845Q603 896 598 934T581 1010T542 1068T478 1088Q439 1088 413 1067T374 1007T356 929T350 838V768Z"
/>
<glyph unicode="f" horiz-adv-x="634" d="M184 0V1088H56V1280H184V1329Q184 1410 190 1466T214 1575T264 1659T348 1709T474 1728Q536 1728 632 1716V1526Q622 1527 591 1531T546 1536Q482 1536 461 1496T440 1376V1280H632V1088H440V0H184Z" />
<glyph unicode="g" horiz-adv-x="925" d="M298 560T458 560T618 832Q618 887 611 933T587 1024T537 1094T458 1120Q411 1120 378 1095T329 1025T305 934T298 832Q298 560 458 560ZM522 -194Q549 -194 570 -193T620 -189T668 -180T707 -163T736 -137T746 -99Q746
8 541 32L330 57Q291 29 264 -24T236 -135Q236 -151 247 -162T279 -180T323 -190T377 -195T430 -196T481 -195T522 -194ZM522 -383Q474 -383 444 -383T362 -380T275 -373T195 -359T121 -336T64 -303T24 -257T10 -195Q10 -95 63 -24T202 89Q150 103 112 131T74 201Q74
218 78 237T87 271T103 307T120 338T142 370T162 398T184 425T202 448Q74 600 74 832Q74 965 116 1069T246 1235T458 1298Q529 1298 582 1278T668 1228T734 1147Q810 1288 950 1297Q953 1297 956 1297T963 1297T970 1297V1088Q965 1088 954 1088Q911 1088 889 1087T840
1079T797 1055Q815 1016 828 952T842 832Q842 698 802 595T673 430T458 368L329 383Q327 378 319 366T307 345T298 325T294 301Q294 275 319 257T388 231T472 218T563 212T632 206Q689 198 733 188T824 157T901 109T950 37T970 -64Q970 -134 946 -189T880 -280T781
-339T659 -373T522 -383Z" />
<glyph unicode="h" horiz-adv-x="992" d="M117 0V1792H373V1142Q430 1194 466 1221T565 1273T701 1298Q783 1298 834 1238T885 1091V0H629V960Q629 1026 613 1057T541 1088Q463 1088 373 1013V0H117Z" />
<glyph unicode="i" horiz-adv-x="512" d="M128 1472V1728H384V1472H128ZM128 0V1280H384V0H128Z" />
<glyph unicode="j" horiz-adv-x="507" d="M150 1472V1728H406V1472H150ZM86 -320Q2 -320 -42 -303V-121Q-7 -128 22 -128Q150 -128 150 21V1280H406V-7Q406 -155 321 -237T86 -320Z" />
<glyph unicode="k" horiz-adv-x="961" d="M117 0V1792H373V807L693 1280H949L662 833L949 0H693L501 619L373 448V0H117Z" />
<glyph unicode="l" horiz-adv-x="485" d="M118 0V1792H374V0H118Z" />
<glyph unicode="m" horiz-adv-x="1504" d="M117 0V1280H373V1135Q510 1298 692 1298Q784 1298 827 1258T885 1129Q948 1212 1021 1255T1205 1298Q1237 1298 1262 1292T1307 1276T1340 1249T1364 1215T1380 1170T1390 1122T1395 1066T1397 1008T1397 945Q1397 936
1397 931V0H1141V934Q1141 939 1141 950Q1141 983 1140 1001T1134 1042T1114 1077T1077 1088Q1038 1088 999 1073T939 1043T885 1002V0H629V929Q629 935 629 947Q629 975 629 989T626 1025T616 1059T597 1079T565 1088Q471 1088 373 1007V0H117Z" />
<glyph unicode="n" horiz-adv-x="992" d="M117 0V1280H373V1142Q430 1194 466 1221T565 1273T701 1298Q783 1298 834 1238T885 1091V0H629V960Q629 1027 610 1057T533 1088Q500 1088 468 1075T419 1050T373 1013V0H117Z" />
<glyph unicode="o" horiz-adv-x="954" d="M683 -18T477 -18T182 102T93 448V832Q93 1058 182 1178T477 1298T772 1178T861 832V448Q861 222 772 102ZM450 192T477 192T524 200T558 219T581 253T595 293T602 342T604 392T605 448V832Q605 869 605 887T602 938T595
987T581 1026T559 1060T525 1080T477 1088T430 1080T396 1061T373 1027T359 987T352 938T350 888T349 832V448Q349 411 349 393T352 342T359 293T373 254T395 220T429 200Z" />
<glyph unicode="p" horiz-adv-x="1042" d="M565 192Q606 192 633 222T673 307T690 417T695 545L693 714Q693 759 693 786T689 859T681 934T664 998T638 1053T598 1087T542 1101Q527 1101 514 1099T486 1093T462 1085T437 1073T416 1062T393 1048T373 1036V244Q461
192 565 192ZM117 -384V1280H373V1152Q404 1185 416 1197T457 1234T508 1269T563 1288T633 1298Q698 1298 749 1275T833 1218T889 1124T923 1012T941 877T948 740T949 595V576Q949 492 941 414T910 256T853 116T761 20T629 -18Q499 -18 373 115V-384H117Z" />
<glyph unicode="q" horiz-adv-x="1012" d="M476 192Q577 192 668 244V1036Q664 1038 648 1048T626 1061T604 1073T580 1084T556 1092T528 1099T499 1101Q467 1101 443 1087T402 1052T375 995T358 930T350 854T347 780T346 707Q346 705 346 704Q346 687 346 649T346
576T346 510Q347 443 352 393T371 294T411 219T476 192ZM668 -384V115Q611 56 551 19T412 -18Q338 -18 281 19T189 116T132 255T101 414T92 576V771Q92 858 100 930T129 1072T184 1190T276 1268T408 1298Q451 1298 488 1287T560 1250T614 1207T668 1152V1280H924V-384H668Z"
/>
<glyph unicode="r" horiz-adv-x="693" d="M117 0V1280H373V1109Q412 1185 486 1241T652 1298Q655 1298 693 1294V1011Q622 1039 551 1039Q471 1039 422 991T373 864V0H117Z" />
<glyph unicode="s" horiz-adv-x="876" d="M453 -18Q295 -18 200 76T69 320L261 384Q330 192 453 192Q514 192 547 225T581 320Q581 409 517 468L261 660Q218 689 189 714T130 777T85 860T69 960Q69 1124 173 1211T453 1298Q536 1298 603 1272T715 1197T790 1091T837
960L645 896Q631 934 617 961T580 1021T524 1070T453 1088Q392 1088 359 1055T325 960Q325 900 389 852L645 660Q688 626 718 595T778 522T822 429T837 320Q837 156 733 69T453 -18Z" />
<glyph unicode="t" horiz-adv-x="700" d="M472 -18Q321 -18 253 59T182 292V1088H54V1280H182V1728H438V1280H630V1088H438V341Q438 264 459 228T544 192Q572 192 630 202V-6Q534 -18 472 -18Z" />
<glyph unicode="u" horiz-adv-x="987" d="M300 -18Q216 -18 165 41T114 189V1280H370V267Q370 227 394 202T458 177Q479 177 499 182T538 199T569 219T600 245T626 267V1280H882V0H626V138Q588 105 571 90T517 50T454 13T385 -8T300 -18Z" />
<glyph unicode="v" horiz-adv-x="872" d="M308 0L20 1280H266L444 319L606 1280H852L566 0H308Z" />
<glyph unicode="w" horiz-adv-x="1281" d="M257 0L20 1280H247L389 308L523 1280H757L893 318L1033 1280H1261L1013 0H777L641 882L503 0H257Z" />
<glyph unicode="x" horiz-adv-x="866" d="M17 0L273 640V666L17 1280H264L435 791L606 1280H849L593 666V640L849 0H593L441 493L273 0H17Z" />
<glyph unicode="y" horiz-adv-x="872" d="M84 -320V-128Q160 -128 205 -118T274 -83T303 -27T310 58L20 1280H276Q425 457 437 384Q458 519 484 668T544 998T596 1280H852L532 -64Q500 -203 397 -261T110 -320H84Z" />
<glyph unicode="z" horiz-adv-x="818" d="M71 0V192L519 1088H135V1280H775V1088L327 192H775V0H71Z" />
<glyph unicode="{" horiz-adv-x="704" d="M640 -64Q508 -64 419 -27T281 87T212 265T192 512Q192 525 192 554T193 595T191 632T188 667T182 695T171 721T155 740T132 756T102 764T64 768V1024Q88 1024 107 1031T139 1054T162 1087T177 1132T186 1182T191 1238T192
1294T193 1353T192 1408Q192 1539 213 1622T288 1759T425 1834T640 1856V1664Q601 1664 572 1659T523 1646T488 1621T466 1587T454 1540T449 1482T448 1408Q448 986 256 896Q351 855 399 757T448 512Q448 509 448 503Q448 447 448 419T452 344T463 272T484 215T518
167T569 140T640 128V-64Z" />
<glyph unicode="|" horiz-adv-x="384" d="M128 -128V1920H320V-128H128Z" />
<glyph unicode="}" horiz-adv-x="704" d="M64 -64V128Q92 128 116 132T158 148T190 171T214 204T232 242T243 287T250 336T254 391T256 446T256 506Q256 510 256 512Q256 657 304 756T448 896Q256 982 256 1408Q256 1444 256 1466T253 1515T247 1557T237 1591T220
1619T196 1639T163 1653T119 1661T64 1664V1856Q237 1856 332 1814T470 1677T512 1408Q512 1392 512 1354T511 1295T512 1239T517 1182T526 1133T541 1088T564 1055T597 1031T640 1024V768Q613 768 592 763T558 747T535 723T521 690T514 649T512 601T512 549Q512
525 512 512Q512 395 500 309T458 150T378 32T249 -39T64 -64Z" />
<glyph unicode="~" horiz-adv-x="960" d="M613 812Q565 812 515 834T417 877T329 899Q281 899 281 832H127Q127 948 184 1026T347 1105Q405 1105 492 1062T628 1019Q679 1019 679 1088H833Q833 969 777 891T613 812Z" />
<glyph unicode="&#xa0;" horiz-adv-x="416" />
<glyph unicode="&#xa1;" horiz-adv-x="384" d="M64 1280V1536H320V1280H64ZM64 0L128 1152H256V0H64Z" />
<glyph unicode="&#xa2;" horiz-adv-x="1027" d="M479 206V1071Q456 1060 439 1041T411 991T395 934T386 863T384 793T384 714T385 640Q385 616 384 567T383 488T384 415T392 343T408 284T436 235T479 206ZM479 -128V-15Q391 -8 328 21T227 94T167 208T137 353T129
532V733Q129 833 137 910T169 1057T231 1175T332 1254T479 1294V1408H557V1294Q735 1274 816 1157T897 831L641 832Q641 933 625 991T557 1073V207Q581 219 597 239T622 282T635 340T640 402T641 473H897Q897 468 897 453T898 430Q898 239 812 122T557 -14V-128H479Z"
/>
<glyph unicode="&#xa3;" horiz-adv-x="896" d="M0 0V128L128 191V768H0V960H128V1152Q128 1235 131 1298T143 1433T169 1557T215 1659T284 1740T381 1791T512 1810Q677 1810 753 1706T832 1422V1344H640Q640 1397 636 1435T620 1514T581 1578T512 1600Q479 1600
455 1583T419 1540T398 1475T388 1404T384 1330V960H640V768H384V192H832V0H0Z" />
<glyph unicode="&#xa4;" horiz-adv-x="1024" d="M421 682T512 682T653 741T704 896T654 1051T512 1110Q420 1110 370 1052T320 897T370 742ZM195 489L105 579L191 665Q128 761 128 897Q128 1030 191 1127L105 1213L195 1303L281 1217Q378 1280 512 1280T743 1217L829
1303L919 1213L832 1126Q896 1028 896 897Q896 765 832 665L919 579L829 489L743 575Q646 512 512 512T281 575L195 489Z" />
<glyph unicode="&#xa5;" horiz-adv-x="1024" d="M384 0V256H192V424H384V553H192V719H341L48 1792H308L512 848L714 1792H974L679 719H832V553H640V424H832V256H640V0H384Z" />
<glyph unicode="&#xa6;" horiz-adv-x="395" d="M94 889V1518H297V889H94ZM94 -14V614H297V-14H94Z" />
<glyph unicode="&#xa7;" horiz-adv-x="960" d="M512 754Q608 799 608 882Q608 906 598 929T565 976T528 1012T483 1048T448 1074Q352 1017 352 925Q352 891 371 862T416 817L512 754ZM480 -17Q398 -17 331 10T219 85T143 191T96 321L288 385Q357 193 480 193Q541
193 574 226T608 321Q608 370 591 411T544 469L288 625Q228 661 190 696T124 790T96 925Q96 1035 145 1111T282 1226Q239 1251 213 1269T157 1318T111 1386T96 1472Q96 1636 200 1723T480 1810Q563 1810 629 1784T742 1709T817 1602T864 1472L672 1408Q658 1446
644 1473T607 1533T551 1582T480 1600Q419 1600 386 1567T352 1472Q352 1412 416 1364Q577 1275 600 1261Q775 1153 831 1032Q864 963 864 882Q864 687 706 596Q779 537 821 473T864 321Q864 157 760 70T480 -17Z" />
<glyph unicode="&#xa8;" horiz-adv-x="896" d="M512 1536V1792H768V1536H512ZM128 1536V1792H384V1536H128Z" />
<glyph unicode="&#xa9;" horiz-adv-x="1528" d="M764 -14Q614 -14 485 41T265 191T122 418T70 700Q70 902 158 1065T405 1321T764 1415Q914 1415 1043 1360T1263 1210T1406 983T1458 700Q1458 499 1370 336T1122 80T764 -14ZM612 133T764 133T1036 208T1221 412T1286
696Q1286 813 1248 917T1143 1096T977 1216T764 1260Q611 1260 491 1185T306 981T242 696Q242 541 307 413T492 209ZM768 217Q710 217 665 231T589 268T537 330T503 407T485 502T477 607T475 723Q475 810 481 872T505 995T555 1095T642 1156T774 1180Q1055 1180
1055 840H872Q872 881 869 910T857 971T828 1019T776 1036Q753 1036 735 1031T703 1014T681 990T667 956T658 917T655 871T654 824T654 772T655 721T655 671T654 617T653 565T656 513T664 466T677 425T698 394T728 372T768 365Q803 365 826 383T858 435T871 501T874
578H1053V562Q1053 406 983 312T768 217Z" />
<glyph unicode="&#xaa;" horiz-adv-x="842" d="M374 144Q410 144 440 166T485 219V408Q390 357 361 332Q303 285 303 228Q303 189 321 167T374 144ZM301 -10Q218 -10 163 45T108 183Q108 251 134 300T224 385T325 434T450 475Q474 482 485 486V580Q485 719 409
719Q319 719 319 568H141Q143 702 214 782T413 863Q492 863 545 841T626 772T666 666T678 521V0H501V111Q472 58 419 24T301 -10Z" />
<glyph unicode="&#xab;" horiz-adv-x="1024" d="M960 64L512 576V704L960 1216V896L704 641L960 384V64ZM512 64L64 576V704L512 1216V896L256 641L512 384V64Z" />
<glyph unicode="&#xac;" horiz-adv-x="768" d="M512 256V448H128V640H640V256H512Z" />
<glyph unicode="&#xad;" horiz-adv-x="768" d="M128 448V640H640V448H128Z" />
<glyph unicode="&#xae;" horiz-adv-x="1528" d="M764 -14Q614 -14 485 41T265 191T122 418T70 700Q70 902 158 1065T405 1321T764 1415Q914 1415 1043 1360T1263 1210T1406 983T1458 700Q1458 499 1370 336T1122 80T764 -14ZM612 133T764 133T1036 208T1221 412T1286
696Q1286 813 1248 917T1143 1096T977 1216T764 1260Q611 1260 491 1185T306 981T242 696Q242 541 307 413T492 209ZM672 729H705Q798 729 832 764T866 897Q866 972 838 1010T743 1049H672V729ZM516 248V1167H756Q1026 1167 1026 893Q1026 738 901 670L1049 248H881L754
633H672V248H516Z" />
<glyph unicode="&#xaf;" horiz-adv-x="640" d="M123 1407V1559H557V1407H123Z" />
<glyph unicode="&#xb0;" horiz-adv-x="1024" d="M692 1042T512 1042T230 1145T128 1427Q128 1605 230 1707T512 1810T794 1708T896 1427Q896 1248 794 1145ZM421 1212T512 1212T653 1271T704 1426T654 1581T512 1640Q420 1640 370 1582T320 1427T370 1272Z" />
<glyph unicode="&#xb1;" horiz-adv-x="832" d="M128 0V192H704V0H128ZM320 384V576H128V768H320V960H512V768H704V576H512V384H320Z" />
<glyph unicode="&#xb2;" horiz-adv-x="640" d="M64 576V704L256 960Q263 969 283 995T313 1034T339 1073T363 1118T377 1163T384 1216Q384 1237 384 1248T382 1277T376 1304T365 1324T347 1339T320 1344T293 1340T275 1325T264 1305T259 1277T257 1248T256 1216H64Q64
1337 130 1404T320 1472T509 1405T576 1216Q576 1145 539 1068T457 937T348 812T256 704H576V576H64Z" />
<glyph unicode="&#xb3;" horiz-adv-x="768" d="M507 640T384 640T195 707T128 896H320Q320 875 320 864T322 835T328 808T339 788T357 773T384 768T411 772T429 787T440 807T445 835T447 864T448 896Q448 967 420 995T320 1024V1152Q393 1152 420 1180T448 1280Q448
1301 448 1312T446 1341T440 1368T429 1388T411 1403T384 1408T357 1404T339 1389T328 1369T323 1341T321 1312T320 1280H128Q128 1401 194 1468T384 1536T573 1469T640 1280Q640 1189 589 1140T448 1088Q538 1082 589 1035T640 896Q640 775 574 708Z" />
<glyph unicode="&#xb4;" horiz-adv-x="640" d="M128 1408L256 1792H512L256 1408H128Z" />
<glyph unicode="&#xb5;" horiz-adv-x="987" d="M370 267Q370 227 394 202T458 177Q479 177 499 182T538 199T569 219T600 245T626 267V1280H882V0H626V138Q590 75 530 38T370 0V-252L114 -253V1280H370V267Z" />
<glyph unicode="&#xb6;" horiz-adv-x="952" d="M382 0V876Q218 876 117 962T16 1204Q16 1373 123 1454T423 1536H896V0H718V876H579V0H382Z" />
<glyph unicode="&#xb7;" horiz-adv-x="384" d="M64 706V962H320V706H64Z" />
<glyph unicode="&#xb8;" horiz-adv-x="576" d="M64 -512V-384Q79 -384 115 -385T172 -386Q240 -386 280 -373T320 -320Q320 -306 313 -293T291 -269T262 -248T225 -230T190 -215T155 -202T128 -192V0H256V-128Q303 -141 337 -154T417 -190T487 -246T512 -320Q512
-358 501 -387T473 -437T427 -471T370 -493T301 -505T228 -511T149 -512H64Z" />
<glyph unicode="&#xb9;" horiz-adv-x="512" d="M192 640V1216H64V1344Q232 1427 320 1536H384V640H192Z" />
<glyph unicode="&#xba;" horiz-adv-x="899" d="M450 -14Q261 -14 180 94T99 410V729Q99 937 180 1045T450 1153Q630 1153 715 1040T800 729V410Q800 212 715 99T450 -14ZM445 186Q464 186 480 189T509 200T530 216T547 240T558 266T566 298T571 332T573 370T574
409T574 451V688Q574 692 574 700Q574 730 574 744T573 785T570 825T563 860T552 892T536 916T514 936T484 947T445 952Q418 952 397 944T362 925T338 891T323 851T316 801T313 747T312 688V451Q312 408 313 383T317 322T330 266T353 225T390 195T445 186Z" />
<glyph unicode="&#xbb;" horiz-adv-x="1024" d="M512 64V384L768 641L512 896V1216L960 704V576L512 64ZM64 64V384L320 641L64 896V1216L512 704V576L64 64Z" />
<glyph unicode="&#xbc;" horiz-adv-x="1687" d="M1173 383H1301V639L1173 383ZM1301 -1V255H981V383L1321 959H1493V383H1621V255H1493V-1H1301ZM409 0L984 1792H1241L665 0H409ZM197 744V1320H69V1448Q237 1531 325 1640H389V744H197Z" />
<glyph unicode="&#xbd;" horiz-adv-x="1713" d="M1130 3V131L1322 387Q1329 396 1349 422T1379 461T1405 500T1429 545T1443 590T1450 643Q1450 664 1450 675T1448 704T1442 731T1431 751T1413 766T1386 771T1359 767T1341 752T1330 732T1325 704T1323 675T1322
643H1130Q1130 764 1196 831T1386 899T1575 832T1642 643Q1642 572 1605 495T1523 364T1414 239T1322 131H1642V3H1130ZM434 0L1009 1792H1266L690 0H434ZM194 744V1320H66V1448Q234 1531 322 1640H386V744H194Z" />
<glyph unicode="&#xbe;" horiz-adv-x="1803" d="M1291 386H1419V642L1291 386ZM1419 2V258H1099V386L1439 962H1611V386H1739V258H1611V2H1419ZM519 0L1094 1792H1351L775 0H519ZM450 764T327 764T138 831T71 1020H263Q263 999 263 988T265 959T271 932T282 912T300
897T327 892T354 896T372 911T383 931T388 959T390 988T391 1020Q391 1091 363 1119T263 1148V1276Q336 1276 363 1304T391 1404Q391 1425 391 1436T389 1465T383 1492T372 1512T354 1527T327 1532T300 1528T282 1513T271 1493T266 1465T264 1436T263 1404H71Q71
1525 137 1592T327 1660T516 1593T583 1404Q583 1313 532 1264T391 1212Q481 1206 532 1159T583 1020Q583 899 517 832Z" />
<glyph unicode="&#xbf;" horiz-adv-x="891" d="M343 1106V1329H564V1106H343ZM430 -5Q80 -5 80 346Q80 387 90 430T113 505T154 580T197 645T251 708T299 761T349 812V1029H565V760Q553 745 510 695T442 610T384 526T335 425T318 328Q318 202 430 202Q472 202
501 219T544 269T565 337T571 421H790V396Q790 210 699 103T430 -5Z" />
<glyph unicode="&#xc0;" horiz-adv-x="1056" d="M400 640H656L528 1408L400 640ZM16 0L400 1792H656L1040 0H784L688 448H368L272 0H16ZM464 1912L208 2296H464L592 1912H464Z" />
<glyph unicode="&#xc1;" horiz-adv-x="1056" d="M400 640H656L528 1408L400 640ZM16 0L400 1792H656L1040 0H784L688 448H368L272 0H16ZM464 1912L592 2296H848L592 1912H464Z" />
<glyph unicode="&#xc2;" horiz-adv-x="1056" d="M400 640H656L528 1408L400 640ZM16 0L400 1792H656L1040 0H784L688 448H368L272 0H16ZM208 1912L400 2296H656L848 1912H656L528 2168L400 1912H208Z" />
<glyph unicode="&#xc3;" horiz-adv-x="1056" d="M400 640H656L528 1408L400 640ZM16 0L400 1792H656L1040 0H784L688 448H368L272 0H16ZM661 1912Q613 1912 563 1934T465 1977T377 1999Q329 1999 329 1932H175Q175 2048 232 2126T395 2205Q453 2205 540 2162T676
2119Q727 2119 727 2188H881Q881 2071 824 1992T661 1912Z" />
<glyph unicode="&#xc4;" horiz-adv-x="1056" d="M400 640H656L528 1408L400 640ZM16 0L400 1792H656L1040 0H784L688 448H368L272 0H16ZM592 1912V2168H848V1912H592ZM208 1912V2168H464V1912H208Z" />
<glyph unicode="&#xc5;" horiz-adv-x="1056" d="M400 640H656L528 1408L400 640ZM16 0L400 1792H656L1040 0H784L688 448H368L272 0H16ZM645 1857T528 1857T342 1927T272 2113T341 2299T528 2369T714 2299T784 2113T715 1927ZM468 1985T528 1985T622 2019T656
2113T622 2206T528 2241T434 2207T400 2113T434 2019Z" />
<glyph unicode="&#xc6;" horiz-adv-x="1408" d="M393 640H640V1298L393 640ZM-126 0L638 1792H1344V1600H896V1024H1216V832H896V192H1344V0H640V448H320L129 0H-126Z" />
<glyph unicode="&#xc7;" horiz-adv-x="1107" d="M588 -18Q475 -18 389 14T248 102T159 243T110 424T96 641V1152Q96 1273 110 1369T158 1549T248 1690T389 1778T588 1810Q713 1810 804 1773T949 1664T1031 1497T1064 1275Q1065 1256 1065 1216H809V1273Q808 1326
805 1363T794 1441T771 1507T732 1556T672 1589T588 1600Q526 1600 482 1580T412 1529T374 1444T356 1341T352 1216V576Q352 512 357 460T379 357T420 270T488 214T588 192T686 214T750 270T787 357T805 460T809 576V640H1065V576Q1065 437 1041 332T962 147T814
24T588 -18ZM452 -513V-385Q467 -385 503 -386T560 -387Q628 -387 668 -374T708 -321Q708 -307 701 -294T679 -270T650 -249T613 -231T578 -216T543 -203T516 -193V-1H644V-129Q691 -142 725 -155T805 -191T875 -247T900 -321Q900 -359 889 -388T861 -438T815 -472T758
-494T689 -506T616 -512T537 -513H452Z" />
<glyph unicode="&#xc8;" horiz-adv-x="861" d="M128 0V1792H832V1600H384V1024H704V832H384V192H832V0H128ZM416 1912L160 2296H416L544 1912H416Z" />
<glyph unicode="&#xc9;" horiz-adv-x="861" d="M128 0V1792H832V1600H384V1024H704V832H384V192H832V0H128ZM416 1912L544 2296H800L544 1912H416Z" />
<glyph unicode="&#xca;" horiz-adv-x="861" d="M128 0V1792H832V1600H384V1024H704V832H384V192H832V0H128ZM160 1912L352 2296H608L800 1912H608L480 2168L352 1912H160Z" />
<glyph unicode="&#xcb;" horiz-adv-x="861" d="M128 0V1792H832V1600H384V1024H704V832H384V192H832V0H128ZM544 1912V2168H800V1912H544ZM160 1912V2168H416V1912H160Z" />
<glyph unicode="&#xcc;" horiz-adv-x="542" d="M140 0V1792H396V0H140ZM204 1912L-52 2296H204L332 1912H204Z" />
<glyph unicode="&#xcd;" horiz-adv-x="542" d="M140 0V1792H396V0H140ZM204 1912L332 2296H588L332 1912H204Z" />
<glyph unicode="&#xce;" horiz-adv-x="542" d="M140 0V1792H396V0H140ZM-52 1912L140 2296H396L588 1912H396L268 2168L140 1912H-52Z" />
<glyph unicode="&#xcf;" horiz-adv-x="542" d="M140 0V1792H396V0H140ZM332 1912V2168H588V1912H332ZM-52 1912V2168H204V1912H-52Z" />
<glyph unicode="&#xd0;" horiz-adv-x="1152" d="M128 0V852H34V1004H128V1792H512Q793 1792 908 1677T1024 1280V576Q1024 281 907 141T510 0H128ZM384 192H512Q575 192 620 203T693 245T737 303T759 389T767 484T768 601Q768 627 768 640V1216Q768 1265 768 1294T765
1362T757 1425T743 1476T721 1521T688 1554T643 1580T583 1594T507 1600H384V1004H528V852H384V192Z" />
<glyph unicode="&#xd1;" horiz-adv-x="1152" d="M128 0V1792H320L768 684V1792H1024V0H842L384 1192V0H128ZM709 1912Q661 1912 611 1934T513 1977T425 1999Q377 1999 377 1932H223Q223 2048 280 2126T443 2205Q501 2205 588 2162T724 2119Q775 2119 775 2188H929Q929
2071 872 1992T709 1912Z" />
<glyph unicode="&#xd2;" horiz-adv-x="1180" d="M590 -18Q455 -18 359 23T205 143T122 328T96 576V1226Q96 1367 122 1472T205 1654T358 1771T590 1810Q852 1810 968 1660T1084 1226V576Q1084 437 1058 331T974 145T821 24T590 -18ZM455 192T590 192T776 273T828
512V1290Q828 1446 777 1523T590 1600T403 1523T352 1290V512Q352 354 403 273ZM526 1912L270 2296H526L654 1912H526Z" />
<glyph unicode="&#xd3;" horiz-adv-x="1180" d="M590 -18Q455 -18 359 23T205 143T122 328T96 576V1226Q96 1367 122 1472T205 1654T358 1771T590 1810Q852 1810 968 1660T1084 1226V576Q1084 437 1058 331T974 145T821 24T590 -18ZM455 192T590 192T776 273T828
512V1290Q828 1446 777 1523T590 1600T403 1523T352 1290V512Q352 354 403 273ZM526 1912L654 2296H910L654 1912H526Z" />
<glyph unicode="&#xd4;" horiz-adv-x="1180" d="M590 -18Q455 -18 359 23T205 143T122 328T96 576V1226Q96 1367 122 1472T205 1654T358 1771T590 1810Q852 1810 968 1660T1084 1226V576Q1084 437 1058 331T974 145T821 24T590 -18ZM455 192T590 192T776 273T828
512V1290Q828 1446 777 1523T590 1600T403 1523T352 1290V512Q352 354 403 273ZM270 1912L462 2296H718L910 1912H718L590 2168L462 1912H270Z" />
<glyph unicode="&#xd5;" horiz-adv-x="1180" d="M590 -18Q455 -18 359 23T205 143T122 328T96 576V1226Q96 1367 122 1472T205 1654T358 1771T590 1810Q852 1810 968 1660T1084 1226V576Q1084 437 1058 331T974 145T821 24T590 -18ZM455 192T590 192T776 273T828
512V1290Q828 1446 777 1523T590 1600T403 1523T352 1290V512Q352 354 403 273ZM723 1912Q675 1912 625 1934T527 1977T439 1999Q391 1999 391 1932H237Q237 2048 294 2126T457 2205Q515 2205 602 2162T738 2119Q789 2119 789 2188H943Q943 2071 886 1992T723 1912Z"
/>
<glyph unicode="&#xd6;" horiz-adv-x="1180" d="M590 -18Q455 -18 359 23T205 143T122 328T96 576V1226Q96 1367 122 1472T205 1654T358 1771T590 1810Q852 1810 968 1660T1084 1226V576Q1084 437 1058 331T974 145T821 24T590 -18ZM455 192T590 192T776 273T828
512V1290Q828 1446 777 1523T590 1600T403 1523T352 1290V512Q352 354 403 273ZM654 1912V2168H910V1912H654ZM270 1912V2168H526V1912H270Z" />
<glyph unicode="&#xd7;" horiz-adv-x="768" d="M192 320L64 448L256 640L64 832L192 960L384 768L576 960L704 832L512 640L704 448L576 320L384 512L192 320Z" />
<glyph unicode="&#xd8;" horiz-adv-x="1180" d="M590 192Q725 192 776 273T828 512V1290Q828 1417 799 1484L463 219Q512 192 590 192ZM387 301L723 1571Q671 1600 590 1600Q454 1600 403 1523T352 1290V512Q352 374 387 301ZM364 -156L274 -128L319 43Q96 169
96 576V1226Q96 1367 122 1472T205 1654T358 1771T590 1810Q700 1810 779 1785L821 1944L914 1920L868 1746Q1084 1619 1084 1226V576Q1084 437 1058 331T974 145T821 24T590 -18Q486 -18 407 6L364 -156Z" />
<glyph unicode="&#xd9;" horiz-adv-x="1252" d="M743 -19T626 -19T420 12T274 98T180 238T129 419T114 640V1792H370V640Q370 557 373 501T392 382T433 280T508 217T626 192T743 217T818 280T860 381T878 501T882 640V1792H1138V640Q1138 517 1123 420T1072 238T979
99T832 12ZM562 1912L306 2296H562L690 1912H562Z" />
<glyph unicode="&#xda;" horiz-adv-x="1252" d="M743 -19T626 -19T420 12T274 98T180 238T129 419T114 640V1792H370V640Q370 557 373 501T392 382T433 280T508 217T626 192T743 217T818 280T860 381T878 501T882 640V1792H1138V640Q1138 517 1123 420T1072 238T979
99T832 12ZM562 1912L690 2296H946L690 1912H562Z" />
<glyph unicode="&#xdb;" horiz-adv-x="1252" d="M743 -19T626 -19T420 12T274 98T180 238T129 419T114 640V1792H370V640Q370 557 373 501T392 382T433 280T508 217T626 192T743 217T818 280T860 381T878 501T882 640V1792H1138V640Q1138 517 1123 420T1072 238T979
99T832 12ZM306 1912L498 2296H754L946 1912H754L626 2168L498 1912H306Z" />
<glyph unicode="&#xdc;" horiz-adv-x="1252" d="M743 -19T626 -19T420 12T274 98T180 238T129 419T114 640V1792H370V640Q370 557 373 501T392 382T433 280T508 217T626 192T743 217T818 280T860 381T878 501T882 640V1792H1138V640Q1138 517 1123 420T1072 238T979
99T832 12ZM690 1912V2168H946V1912H690ZM306 1912V2168H562V1912H306Z" />
<glyph unicode="&#xdd;" horiz-adv-x="1018" d="M381 0V576L-3 1792H253L509 896L765 1792H1021L637 576V0H381ZM445 1912L573 2296H829L573 1912H445Z" />
<glyph unicode="&#xde;" horiz-adv-x="952" d="M324 581H369Q524 581 596 646T669 888Q669 1052 606 1120T401 1188H324V581ZM72 0V1792H324V1411H504Q720 1411 825 1274T931 886Q931 622 813 493T457 364H326V0H72Z" />
<glyph unicode="&#xdf;" horiz-adv-x="1152" d="M512 -18V192Q591 192 641 210T720 271T758 370T768 512Q768 653 704 732T512 812V1024Q568 1024 608 1051T670 1125T701 1226T711 1344Q711 1404 705 1446T681 1525T630 1581T544 1600Q495 1600 463 1583T414 1530T391
1455T384 1359V0H128V1354Q128 1561 226 1685T512 1810Q735 1810 847 1690T960 1344Q960 1191 906 1096T741 939Q873 903 948 791T1024 512Q1024 247 899 115T512 -18Z" />
<glyph unicode="&#xe0;" horiz-adv-x="955" d="M468 192Q495 192 520 208T559 239T591 279Q594 284 596 286V640Q580 629 543 606T484 569T431 529T383 480T353 422T340 351Q340 192 468 192ZM340 -18Q233 -18 159 74T84 283Q84 376 115 452T182 573T299 667T423
734T569 793Q587 800 596 804V896Q596 993 569 1046T468 1100Q402 1100 374 1055T341 929Q340 918 340 896H84Q86 1080 187 1189T468 1298Q647 1298 749 1188T852 896V320Q852 120 885 0H630L596 192Q576 152 564 130T527 76T479 26T419 -5T340 -18ZM392 1656L136
2040H392L520 1656H392Z" />
<glyph unicode="&#xe1;" horiz-adv-x="955" d="M468 192Q495 192 520 208T559 239T591 279Q594 284 596 286V640Q580 629 543 606T484 569T431 529T383 480T353 422T340 351Q340 192 468 192ZM340 -18Q233 -18 159 74T84 283Q84 376 115 452T182 573T299 667T423
734T569 793Q587 800 596 804V896Q596 993 569 1046T468 1100Q402 1100 374 1055T341 929Q340 918 340 896H84Q86 1080 187 1189T468 1298Q647 1298 749 1188T852 896V320Q852 120 885 0H630L596 192Q576 152 564 130T527 76T479 26T419 -5T340 -18ZM392 1400L520
1784H776L520 1400H392Z" />
<glyph unicode="&#xe2;" horiz-adv-x="955" d="M468 192Q495 192 520 208T559 239T591 279Q594 284 596 286V640Q580 629 543 606T484 569T431 529T383 480T353 422T340 351Q340 192 468 192ZM340 -18Q233 -18 159 74T84 283Q84 376 115 452T182 573T299 667T423
734T569 793Q587 800 596 804V896Q596 993 569 1046T468 1100Q402 1100 374 1055T341 929Q340 918 340 896H84Q86 1080 187 1189T468 1298Q647 1298 749 1188T852 896V320Q852 120 885 0H630L596 192Q576 152 564 130T527 76T479 26T419 -5T340 -18ZM136 1656L328
2040H584L776 1656H584L456 1912L328 1656H136Z" />
<glyph unicode="&#xe3;" horiz-adv-x="955" d="M468 192Q495 192 520 208T559 239T591 279Q594 284 596 286V640Q580 629 543 606T484 569T431 529T383 480T353 422T340 351Q340 192 468 192ZM340 -18Q233 -18 159 74T84 283Q84 376 115 452T182 573T299 667T423
734T569 793Q587 800 596 804V896Q596 993 569 1046T468 1100Q402 1100 374 1055T341 929Q340 918 340 896H84Q86 1080 187 1189T468 1298Q647 1298 749 1188T852 896V320Q852 120 885 0H630L596 192Q576 152 564 130T527 76T479 26T419 -5T340 -18ZM845 1656Q797
1656 747 1678T649 1721T561 1743Q513 1743 513 1676H359Q359 1792 416 1870T579 1949Q637 1949 724 1906T860 1863Q911 1863 911 1932H1065Q1065 1815 1008 1736T845 1656Z" />
<glyph unicode="&#xe4;" horiz-adv-x="955" d="M468 192Q495 192 520 208T559 239T591 279Q594 284 596 286V640Q580 629 543 606T484 569T431 529T383 480T353 422T340 351Q340 192 468 192ZM340 -18Q233 -18 159 74T84 283Q84 376 115 452T182 573T299 667T423
734T569 793Q587 800 596 804V896Q596 993 569 1046T468 1100Q402 1100 374 1055T341 929Q340 918 340 896H84Q86 1080 187 1189T468 1298Q647 1298 749 1188T852 896V320Q852 120 885 0H630L596 192Q576 152 564 130T527 76T479 26T419 -5T340 -18ZM520 1400V1656H776V1400H520ZM136
1400V1656H392V1400H136Z" />
<glyph unicode="&#xe5;" horiz-adv-x="955" d="M468 192Q495 192 520 208T559 239T591 279Q594 284 596 286V640Q580 629 543 606T484 569T431 529T383 480T353 422T340 351Q340 192 468 192ZM340 -18Q233 -18 159 74T84 283Q84 376 115 452T182 573T299 667T423
734T569 793Q587 800 596 804V896Q596 993 569 1046T468 1100Q402 1100 374 1055T341 929Q340 918 340 896H84Q86 1080 187 1189T468 1298Q647 1298 749 1188T852 896V320Q852 120 885 0H630L596 192Q576 152 564 130T527 76T479 26T419 -5T340 -18ZM573 1400T456
1400T270 1470T200 1656T269 1842T456 1912T642 1842T712 1656T643 1470ZM396 1528T456 1528T550 1562T584 1656T550 1749T456 1784T362 1750T328 1656T362 1562Z" />
<glyph unicode="&#xe6;" horiz-adv-x="1465" d="M864 764H981Q1021 770 1043 776T1084 797T1112 837T1120 904Q1120 983 1089 1035T992 1088Q965 1088 945 1077T911 1050T888 1006T874 955T867 894T865 835T864 775Q864 768 864 764ZM481 192Q565 192 652 291Q613
433 609 580Q553 565 515 551T436 510T374 444T353 351Q353 192 481 192ZM353 -18Q246 -18 172 74T97 283Q97 348 112 403T152 497T217 570T296 625T393 667T497 698T609 725V896Q609 993 582 1046T481 1100Q431 1100 402 1071T363 1000T353 896H97Q99 1080 200
1189T481 1298Q576 1298 644 1258T737 1146Q775 1213 839 1255T992 1298Q1169 1298 1261 1185T1354 880Q1354 841 1347 809T1327 754T1293 712T1251 681T1199 659T1141 644T1076 635T1008 629T936 625T864 619V576Q864 562 864 533Q862 496 863 456T867 377T878
304T900 243T936 201T992 185Q1016 185 1035 193T1066 214T1086 248T1099 288T1105 337T1107 387T1108 439Q1108 442 1108 444T1108 448H1363Q1363 220 1276 101T991 -18Q767 -18 684 179Q652 133 625 103T559 42T468 -3T353 -18Z" />
<glyph unicode="&#xe7;" horiz-adv-x="901" d="M434 -18Q341 -18 273 13T163 94T97 221T63 376T51 557Q48 640 51 724Q53 826 62 904T97 1059T163 1186T272 1267T434 1298Q636 1298 724 1189T818 866V832H562V868Q561 916 556 952T538 1024T499 1079T434 1099T370
1077T331 1012T311 926T304 823Q300 699 304 449Q306 394 312 353T331 273T371 213T434 192Q468 192 492 205T530 237T550 288T560 347T562 417V448H818V415Q815 314 793 237T727 101T609 13T434 -18ZM349 -513V-385Q364 -385 400 -386T457 -387Q525 -387 565 -374T605
-321Q605 -307 598 -294T576 -270T547 -249T510 -231T475 -216T440 -203T413 -193V-1H541V-129Q588 -142 622 -155T702 -191T772 -247T797 -321Q797 -359 786 -388T758 -438T712 -472T655 -494T586 -506T513 -512T434 -513H349Z" />
<glyph unicode="&#xe8;" horiz-adv-x="910" d="M476 -18Q383 -18 315 14T206 97T140 229T106 390T94 578Q91 662 94 746Q97 846 107 923T144 1074T211 1194T320 1269T478 1298Q560 1298 622 1277T726 1212T795 1115T837 987T856 838T862 670V640H350V576Q350 563
350 535Q348 498 349 459T353 381T364 309T386 248T422 207T478 192Q518 192 544 207T582 254T600 316T606 394V448H860V397Q851 192 759 87T476 -18ZM350 768H604V845Q603 896 598 934T581 1010T542 1068T478 1088Q439 1088 413 1067T374 1007T356 929T350 838V768ZM413
1656L157 2040H413L541 1656H413Z" />
<glyph unicode="&#xe9;" horiz-adv-x="910" d="M476 -18Q383 -18 315 14T206 97T140 229T106 390T94 578Q91 662 94 746Q97 846 107 923T144 1074T211 1194T320 1269T478 1298Q560 1298 622 1277T726 1212T795 1115T837 987T856 838T862 670V640H350V576Q350 563
350 535Q348 498 349 459T353 381T364 309T386 248T422 207T478 192Q518 192 544 207T582 254T600 316T606 394V448H860V397Q851 192 759 87T476 -18ZM350 768H604V845Q603 896 598 934T581 1010T542 1068T478 1088Q439 1088 413 1067T374 1007T356 929T350 838V768ZM413
1400L541 1784H797L541 1400H413Z" />
<glyph unicode="&#xea;" horiz-adv-x="910" d="M476 -18Q383 -18 315 14T206 97T140 229T106 390T94 578Q91 662 94 746Q97 846 107 923T144 1074T211 1194T320 1269T478 1298Q560 1298 622 1277T726 1212T795 1115T837 987T856 838T862 670V640H350V576Q350 563
350 535Q348 498 349 459T353 381T364 309T386 248T422 207T478 192Q518 192 544 207T582 254T600 316T606 394V448H860V397Q851 192 759 87T476 -18ZM350 768H604V845Q603 896 598 934T581 1010T542 1068T478 1088Q439 1088 413 1067T374 1007T356 929T350 838V768ZM157
1656L349 2040H605L797 1656H605L477 1912L349 1656H157Z" />
<glyph unicode="&#xeb;" horiz-adv-x="910" d="M476 -18Q383 -18 315 14T206 97T140 229T106 390T94 578Q91 662 94 746Q97 846 107 923T144 1074T211 1194T320 1269T478 1298Q560 1298 622 1277T726 1212T795 1115T837 987T856 838T862 670V640H350V576Q350 563
350 535Q348 498 349 459T353 381T364 309T386 248T422 207T478 192Q518 192 544 207T582 254T600 316T606 394V448H860V397Q851 192 759 87T476 -18ZM350 768H604V845Q603 896 598 934T581 1010T542 1068T478 1088Q439 1088 413 1067T374 1007T356 929T350 838V768ZM541
1400V1656H797V1400H541ZM157 1400V1656H413V1400H157Z" />
<glyph unicode="&#xec;" horiz-adv-x="512" d="M128 0V1280H384V0H128ZM192 1400L-64 1784H192L320 1400H192Z" />
<glyph unicode="&#xed;" horiz-adv-x="512" d="M128 0V1280H384V0H128ZM192 1656L320 2040H576L320 1656H192Z" />
<glyph unicode="&#xee;" horiz-adv-x="512" d="M128 0V1280H384V0H128ZM192 1656L384 2040H640L832 1656H640L512 1912L384 1656H192Z" />
<glyph unicode="&#xef;" horiz-adv-x="512" d="M128 0V1280H384V0H128ZM320 1400V1656H576V1400H320ZM-64 1400V1656H192V1400H-64Z" />
<glyph unicode="&#xf0;" horiz-adv-x="1152" d="M576 192Q631 192 670 219T729 294T759 395T768 512V978Q693 1088 576 1088Q384 1088 384 704Q384 702 384 698Q384 625 385 585T391 475T408 364T441 279T495 213T576 192ZM576 -18Q470 -18 390 16T261 107T182
251T141 430T129 640Q129 741 139 830T176 1007T245 1157T355 1259T512 1298Q602 1298 674 1257T768 1152Q768 1345 699 1446L256 1344V1472L576 1546Q504 1578 414 1589T192 1600V1810Q434 1810 599 1766T860 1611L1088 1664V1536L932 1500Q1024 1311 1024 960V576Q1024
452 998 347T919 159T778 29T576 -18Z" />
<glyph unicode="&#xf1;" horiz-adv-x="992" d="M117 0V1280H373V1142Q430 1194 466 1221T565 1273T701 1298Q783 1298 834 1238T885 1091V0H629V960Q629 1027 610 1057T533 1088Q500 1088 468 1075T419 1050T373 1013V0H117ZM634 1656Q586 1656 536 1678T438 1721T350
1743Q302 1743 302 1676H148Q148 1792 205 1870T368 1949Q426 1949 513 1906T649 1863Q700 1863 700 1932H854Q854 1815 797 1736T634 1656Z" />
<glyph unicode="&#xf2;" horiz-adv-x="954" d="M683 -18T477 -18T182 102T93 448V832Q93 1058 182 1178T477 1298T772 1178T861 832V448Q861 222 772 102ZM450 192T477 192T524 200T558 219T581 253T595 293T602 342T604 392T605 448V832Q605 869 605 887T602
938T595 987T581 1026T559 1060T525 1080T477 1088T430 1080T396 1061T373 1027T359 987T352 938T350 888T349 832V448Q349 411 349 393T352 342T359 293T373 254T395 220T429 200ZM413 1656L157 2040H413L541 1656H413Z" />
<glyph unicode="&#xf3;" horiz-adv-x="954" d="M683 -18T477 -18T182 102T93 448V832Q93 1058 182 1178T477 1298T772 1178T861 832V448Q861 222 772 102ZM450 192T477 192T524 200T558 219T581 253T595 293T602 342T604 392T605 448V832Q605 869 605 887T602
938T595 987T581 1026T559 1060T525 1080T477 1088T430 1080T396 1061T373 1027T359 987T352 938T350 888T349 832V448Q349 411 349 393T352 342T359 293T373 254T395 220T429 200ZM413 1400L541 1784H797L541 1400H413Z" />
<glyph unicode="&#xf4;" horiz-adv-x="954" d="M683 -18T477 -18T182 102T93 448V832Q93 1058 182 1178T477 1298T772 1178T861 832V448Q861 222 772 102ZM450 192T477 192T524 200T558 219T581 253T595 293T602 342T604 392T605 448V832Q605 869 605 887T602
938T595 987T581 1026T559 1060T525 1080T477 1088T430 1080T396 1061T373 1027T359 987T352 938T350 888T349 832V448Q349 411 349 393T352 342T359 293T373 254T395 220T429 200ZM157 1656L349 2040H605L797 1656H605L477 1912L349 1656H157Z" />
<glyph unicode="&#xf5;" horiz-adv-x="954" d="M683 -18T477 -18T182 102T93 448V832Q93 1058 182 1178T477 1298T772 1178T861 832V448Q861 222 772 102ZM450 192T477 192T524 200T558 219T581 253T595 293T602 342T604 392T605 448V832Q605 869 605 887T602
938T595 987T581 1026T559 1060T525 1080T477 1088T430 1080T396 1061T373 1027T359 987T352 938T350 888T349 832V448Q349 411 349 393T352 342T359 293T373 254T395 220T429 200ZM866 1656Q818 1656 768 1678T670 1721T582 1743Q534 1743 534 1676H380Q380 1792
437 1870T600 1949Q658 1949 745 1906T881 1863Q932 1863 932 1932H1086Q1086 1815 1029 1736T866 1656Z" />
<glyph unicode="&#xf6;" horiz-adv-x="954" d="M683 -18T477 -18T182 102T93 448V832Q93 1058 182 1178T477 1298T772 1178T861 832V448Q861 222 772 102ZM450 192T477 192T524 200T558 219T581 253T595 293T602 342T604 392T605 448V832Q605 869 605 887T602
938T595 987T581 1026T559 1060T525 1080T477 1088T430 1080T396 1061T373 1027T359 987T352 938T350 888T349 832V448Q349 411 349 393T352 342T359 293T373 254T395 220T429 200ZM541 1400V1656H797V1400H541ZM157 1400V1656H413V1400H157Z" />
<glyph unicode="&#xf7;" horiz-adv-x="640" d="M192 879V1135H448V879H192ZM0 576V768H640V576H0ZM192 233V489H448V233H192Z" />
<glyph unicode="&#xf8;" horiz-adv-x="1024" d="M384 346L622 1015Q594 1088 512 1088Q485 1088 465 1080T431 1061T408 1027T394 987T387 938T385 888T384 832V346ZM512 192Q539 192 559 200T593 219T616 253T630 293T637 342T639 392T640 448V803L431 220Q464
192 512 192ZM272 -222L196 -196L280 43Q128 141 128 448V832Q128 942 148 1025T212 1170T331 1265T512 1298Q619 1298 707 1258L789 1491L876 1462L784 1205Q896 1093 896 832V448Q896 222 807 102T512 -18Q418 -18 354 6L272 -222Z" />
<glyph unicode="&#xf9;" horiz-adv-x="987" d="M300 -18Q216 -18 165 41T114 189V1280H370V267Q370 227 394 202T458 177Q479 177 499 182T538 199T569 219T600 245T626 267V1280H882V0H626V138Q588 105 571 90T517 50T454 13T385 -8T300 -18ZM434 1656L178 2040H434L562
1656H434Z" />
<glyph unicode="&#xfa;" horiz-adv-x="987" d="M300 -18Q216 -18 165 41T114 189V1280H370V267Q370 227 394 202T458 177Q479 177 499 182T538 199T569 219T600 245T626 267V1280H882V0H626V138Q588 105 571 90T517 50T454 13T385 -8T300 -18ZM434 1400L562 1784H818L562
1400H434Z" />
<glyph unicode="&#xfb;" horiz-adv-x="987" d="M300 -18Q216 -18 165 41T114 189V1280H370V267Q370 227 394 202T458 177Q479 177 499 182T538 199T569 219T600 245T626 267V1280H882V0H626V138Q588 105 571 90T517 50T454 13T385 -8T300 -18ZM178 1656L370 2040H626L818
1656H626L498 1912L370 1656H178Z" />
<glyph unicode="&#xfc;" horiz-adv-x="987" d="M300 -18Q216 -18 165 41T114 189V1280H370V267Q370 227 394 202T458 177Q479 177 499 182T538 199T569 219T600 245T626 267V1280H882V0H626V138Q588 105 571 90T517 50T454 13T385 -8T300 -18ZM562 1400V1656H818V1400H562ZM178
1400V1656H434V1400H178Z" />
<glyph unicode="&#xfd;" horiz-adv-x="842" d="M84 -320V-128Q160 -128 205 -118T274 -83T303 -27T310 58L20 1280H276Q425 457 437 384Q458 519 484 668T544 998T596 1280H852L532 -64Q500 -203 397 -261T110 -320H84ZM362 1400L490 1784H746L490 1400H362Z" />
<glyph unicode="&#xfe;" horiz-adv-x="1056" d="M576 192Q617 192 644 222T684 307T701 418T706 546V823Q706 868 704 901T694 972T672 1033T634 1072T576 1088Q470 1088 384 1037V232Q483 192 576 192ZM128 -410V1791H384V1153Q420 1191 438 1208T490 1251T562
1287T644 1298Q709 1298 760 1275T844 1218T900 1124T934 1012T952 877T959 740T960 594Q960 507 952 428T923 264T867 120T774 21T640 -18Q562 -18 502 19T384 116V-410H128Z" />
<glyph unicode="&#xff;" horiz-adv-x="842" d="M84 -320V-128Q160 -128 205 -118T274 -83T303 -27T310 58L20 1280H276Q425 457 437 384Q458 519 484 668T544 998T596 1280H852L532 -64Q500 -203 397 -261T110 -320H84ZM490 1400V1656H746V1400H490ZM106 1400V1656H362V1400H106Z"
/>
<glyph unicode="&#x2013;" horiz-adv-x="384" d="M0 448V640H384V448H0Z" />
<glyph unicode="&#x2014;" horiz-adv-x="384" d="M0 448V640H384V448H0Z" />
<glyph unicode="&#x2018;" horiz-adv-x="512" d="M128 1280Q128 1312 127 1375T125 1469Q125 1528 128 1570T144 1657T177 1729T234 1774T320 1792L384 1664Q315 1664 286 1634T256 1536H384V1280H128Z" />
<glyph unicode="&#x2019;" horiz-adv-x="512" d="M192 1280L128 1408Q197 1408 226 1438T256 1536H128V1792H384Q384 1648 381 1550Q379 1496 375 1459T359 1386T327 1328T274 1293T192 1280Z" />
<glyph unicode="&#x201a;" horiz-adv-x="384" d="M126 -321L62 63H318L254 -321H126Z" />
<glyph unicode="&#x201c;" horiz-adv-x="896" d="M512 1280Q512 1312 511 1375T509 1469Q509 1528 512 1570T528 1657T561 1729T618 1774T704 1792L768 1664Q699 1664 670 1634T640 1536H768V1280H512ZM128 1280Q128 1312 127 1375T125 1469Q125 1528 128 1570T144
1657T177 1729T234 1774T320 1792L384 1664Q315 1664 286 1634T256 1536H384V1280H128Z" />
<glyph unicode="&#x201d;" horiz-adv-x="896" d="M576 1280L512 1408Q581 1408 610 1438T640 1536H512V1792H768Q768 1648 765 1550Q763 1496 759 1459T743 1386T711 1328T658 1293T576 1280ZM192 1280L128 1408Q197 1408 226 1438T256 1536H128V1792H384Q384
1648 381 1550Q379 1496 375 1459T359 1386T327 1328T274 1293T192 1280Z" />
<glyph unicode="&#x201e;" horiz-adv-x="704" d="M449 -320L385 64H641L577 -320H449ZM126 -320L62 64H318L254 -320H126Z" />
<glyph unicode="&#x2022;" horiz-adv-x="960" d="M486 595Q363 595 292 678T221 891Q221 1021 291 1104T486 1187Q609 1187 680 1104T751 891Q751 761 681 678T486 595Z" />
<glyph unicode="&#x2039;" horiz-adv-x="582" d="M512 64L64 576V704L512 1216V896L256 641L512 384V64Z" />
<glyph unicode="&#x203a;" horiz-adv-x="577" d="M64 64V384L320 641L64 896V1216L512 704V576L64 64Z" />
</font>
</defs>
</svg>
